请选择 进入手机版 | 继续访问电脑版

CD下载站

CD下载站 专注于CD无损音乐下载 如何分享资源

无损音乐-教程 让无损变得简单,打造属于自己的音乐世界. 如何放在车载U盘上 - 如何刻录到CD光盘 - nero 下载

无损介绍 APE|WAV|FLAC|MP3 有什么问题?请联系.QQ: 8990567 无损介绍 - 群:19198088

周杰伦《最伟大的作品》2022/WAV/整轨/BD

[复制链接]
admin 发表于 2023-10-15 11:47:08|来自:中国江西赣州 | 显示全部楼层 |阅读模式
周杰伦《最伟大的作品》.jpg

台湾五大唱片预购宣传.jpg


cd.jpg

Exact Audio Copy V1.3 from 2. September 2016

EAC 抓取日志文件从11. 九月 2022, 11:15

周杰伦 / 最伟大的作品

使用驱动器  :HL-DT-STDVDRAM GP65NG60   Adapter: 1  ID: 0

读取模式      : 可靠Secure
使用精确流     : 是
清空音频缓存    : 是
使用 C2 指示器 : 否

读取偏移校正:               : 0
读取 Lead-In 和 Lead-Out : 否
用静音填充抓取中丢失偏移的采样       : 是
去除首尾静音块               : 否
在CRC 计算中使用了空样本       : 是
已用接口                  : Win NT 及 2000 本地 Win32 接口

所用输出模式: : 内部 WAV 函数
样本格式    : 44.100 Hz; 16 Bit; 立体声


已抓取 CD 的 TOC

     音轨 |    起始    |    长度    |  起始扇区  |  结束扇区  
    --------------------------------------------
      1 |  0:00.00 |  0:29.59 |      0 |   2233
      2 |  0:29.59 |  4:03.50 |   2234 |  20508
      3 |  4:33.34 |  4:25.61 |  20509 |  40444
      4 |  8:59.20 |  3:40.52 |  40445 |  56996
      5 | 12:39.72 |  4:16.57 |  56997 |  76253
      6 | 16:56.54 |  4:06.21 |  76254 |  94724
      7 | 21:03.00 |  3:05.34 |  94725 | 108633
      8 | 24:08.34 |  4:17.63 | 108634 | 127971
      9 | 28:26.22 |  4:30.00 | 127972 | 148221
     10 | 32:56.22 |  3:06.61 | 148222 | 162232
     11 | 36:03.08 |  3:54.17 | 162233 | 179799
     12 | 39:57.25 |  4:25.37 | 179800 | 199711


范围状态及错误

已选择范围

     文件名 G:\A 无损音乐\Z 周杰伦 无损\2022最伟大的作品\TW版原抓\周杰伦 - 最伟大的作品.wav

     峰值电平 94.4 %
     抓取速度 1.8 X
     范围质量 99.9 %
     复制 CRC 6A8C8305
     复制成功

没有错误发生

状态报告结尾

---- CUETools DB Plugin V2.1.6

[CTDB TOCID: WCXSaoN1rUwJmS9Z_saU8i7nAPI-] found
Submit result: WCXSaoN1rUwJmS9Z_saU8i7nAPI- has been confirmed
Track | CTDB Status
  1   | (123/123) Accurately ripped
  2   | (123/123) Accurately ripped
  3   | (123/123) Accurately ripped
  4   | (123/123) Accurately ripped
  5   | (123/123) Accurately ripped
  6   | (123/123) Accurately ripped
  7   | (123/123) Accurately ripped
  8   | (123/123) Accurately ripped
  9   | (123/123) Accurately ripped
10   | (123/123) Accurately ripped
11   | (123/123) Accurately ripped
12   | (117/123) Accurately ripped, or (2/123) differs in 1914 samples @04:25:23-04:25:25


==== 记录校验日志 A39532F424607AB9383591A069FE059FE62D4DFA42DCAC602B086E2DFA8A53DB ====



下载地址:https://pan.quark.cn/s/b6216cfe5081


全部回复0 显示全部楼层

发表回复

您需要登录后才可以回帖 登录 | 立即注册

本版积分规则

联系客服 关注微信 下载APP 返回顶部 返回列表